Posts Subscribe to This BlogComments

Follow Us


widget

make widget
Please Vote Us
Enter Yahoo Topsites | Yahoo Rare Sites | Yahoo Booter Sites and Vote for this site !!!
Vote For Us
Top Blogs BOOTER-CENTER - Find me on Bloggers.com
Mau Pasang Iklan Disini? Resize Banner 460X61
ads ads ads peluang usaha

Wednesday, March 31, 2010

Arn The Knight Templar

Please Vote Us
Enter Yahoo Topsites | Yahoo Rare Sites | Yahoo Booter Sites and Vote for this site !!!
Vote For Us

http://pornimghost.com/fullsize/tb752l240brylumkv907.jpg

ARN THE KNIGHT TEMPLAR DVDRiP XViD SB0
Arn The Knight Templar (2010)
General Information

Type.................: Movie
-------------------------------------------------------------------------------
Release Notes
-------------------------------------------------------------------------------
General
Complete name :ARN THE KNIGHT TEMPLAR DVDRiP XViD SB0.avi
Format : AVI
Format/Info : Audio Video Interleave
File size : 850 MiB
Duration : 2h 8mn
Overall bit rate : 927 Kbps
Writing application : VirtualDubMod 1.5.4.1 (build 2178/release)
Writing library : VirtualDubMod build 2178/release

Video
Format : MPEG-4 Visual
Format profile : Streaming Video@L1
Format settings, BVOP : Yes
Format settings, QPel : No
Format settings, GMC : No warppoints
Format settings, Matrix : Custom
Codec ID : XVID
Codec ID/Hint : XviD
Duration : 2h 8mn
Bit rate : 811 Kbps
Width : 608 pixels
Height : 352 pixels
Display aspect ratio : 16/9
Frame rate : 25.000 fps
Resolution : 24 bits
Colorimetry : 4:2:0
Scan type : Progressive
Bits/(Pixel*Frame) : 0.152
Stream size : 743 MiB (87%)
Writing library : XviD 1.1.0 (UTC 2005-11-22)

Audio
Format : MPEG Audio
Format version : Version 1
Format profile : Layer 3
Codec ID : 55
Codec ID/Hint : MP3
Duration : 2h 8mn
Bit rate mode : Variable
Bit rate : 104 Kbps
Minimum bit rate : 112 Kbps
Channel(s) : 2 channels
Sampling rate : 44.1 KHz
Resolution : 16 bits
Stream size : 95.1 MiB (11%)
Alignment : Aligned on interleaves
Interleave, duration : 26 ms (0.65 video frame)
Interleave, preload duration : 206 ms
Writing library : LAME3.98r
Encoding settings : ABR
Language : English

HARDCODED ENGLISH SUBZ where needed..


Synopsis: Arn Magnusson is born in 1150, in Western Sweden. he grows up to
become an educated young man and a skilled warrior, and meets Cecilla, the love
of his life. Then a cruel and jealous world forces them apart. Cecilia is
imprisoned in a monostery. Arn is sent to the Holy Land as a Knight Templar,
where war is raging between Christians and Muslims. Arn and Cecilia both have to
struggle to survive, to learn how to confront evil and overcome physical
hardship. Their painful seperation causes their faith in God to waver - though
not their faith in each other, and their conviction that they will one day be
reunited. When Arn returns home, he has to fight for his love and what has
become his mission: to unite Sweden into one Kingdom.

http://pornimghost.com/fullsize/7kdp6bnfse5m36xbnl58.jpg

Download:
http://hotfile.com/dl/35402371/35ec0d4/ARN.The.Knight.Templar.2010.DVDRiP.ENG.part1.r ar.html
http://hotfile.com/dl/35402547/8987624/ARN.The.Knight.Templar.2010.DVDRiP.ENG.part2.r ar.html
http://hotfile.com/dl/35403129/4411185/ARN.The.Knight.Templar.2010.DVDRiP.ENG.part3.r ar.html
http://hotfile.com/dl/35402665/5db0954/ARN.The.Knight.Templar.2010.DVDRiP.ENG.part4.r ar.html
http://hotfile.com/dl/35402685/6d7fe36/ARN.The.Knight.Templar.2010.DVDRiP.ENGpart5.ra r.html

Related Post



Get Traffic Like Spam
Loading...

0 Comment:

Post a Comment

Section meetings - Registered
recent entries

users online



ads ads ads ads
 

networkedblogs

B-C ON YAHOO

Trafic

Followers

MyFreeCopyright.com Registered & Protected MyFreeCopyright.com Registered & Protected